2106
查看
1
回复

[华语] 【原创】90年代不能忽视的名盘THE虎舞竜《ROAD~document》WAV百度

[复制链接]

楼主: ggmmsn       显示全部楼层   阅读模式

楼主

174

主题

176

帖子

788

积分

管理员

Rank: 9Rank: 9Rank: 9

积分
788
发表于 2013-9-9 16:52:12 | 显示全部楼层 |阅读模式
专辑介绍:

艺人: THE虎舞竜  
语种: 日语
唱片公司: メルダック  
发行时间: 1993年04月21日
专辑类别: 录音室专辑
唱片编号:MECR-30037

一张90代不可忽略的专辑,传奇乐队的命运坎坷,不过真印证了一句“是金子总会发亮的”!对于一个喜欢日本音乐的朋友来说,这张是觉得不能错过的。

90年代初的不朽名曲中, THE 虎舞竜的一 曲ROAD可谓是独特的存在。 1993年初,一首完全无视当时的潮流、老气横 秋却又让人无比动容的单曲——ROAD——横 空出世。 这首单曲大卖220W张的疯狂表现,使THE虎舞 竜这支已经在乐坛摸爬滚打超过十年的摇滚乐 队一举成名。 1980年乐队就组建了,当时的团名 是TROUBLE。但却被事务所一直拖到两年后 才出道。 在1982-1984年期间发表过3张大碟却默默无闻。之后乐队便处于半解散的状态。 到了1989年,重组的乐队更名为THE PLEASE。1992年,又改成 THE TROUBLE。 1993年,乐队更名为The TRA☆BRYU也就 是THE 虎舞竜。

ROAD 这首叙事曲堪称是一首传奇歌曲。 早在1987年冬,当时乐队的主唱高桥乔治,收 到一位19岁女粉丝的来信。 少女在信中倾诉了自己的苦恼:她怀孕了,可 是离过婚的男友因为已经有一个孩子,所以不 想再要另一个了。 第二年春天,原本已近临产的少女遇上交通事 故,母女双亡。 这个事件对高桥乔治触动很大,促使他写出 了ROAD。 1992年,THE TROUBLE发表单曲こっぱみじん のRock'n Roll,其中收录的B面歌曲即为第一版的ROAD。 1993年,乐队发表单曲ROAD,同时正式 以THE 虎舞竜的名义开始活动。 同年获得包括日本唱片大奖的最佳热门单曲在 内的奖项无数,热卖超过200W张。 之后高桥乔治创作了一系列的 ROAD续篇,从 1994年发表第二章一直到2001年发表第十三 章,构成了完整的ROAD叙事。 而ROAD和THE 虎舞竜以及高桥乔治之间,也 成为互相关联的整体。 1996年,电影版ROAD问世,剧情很大程度上 还原了当年那个真实的催泪故事。 高桥乔治亲自出演了那位男友的角色,主女角 则是遠山景織子。

高桥乔治 本名高桥恭司,如今的他主要是作为艺能人出 现在公众面前。 2011最新夏季日剧《IS~性别不明》中他出演 了福田沙纪父亲的角色。 1998年,他与仅16岁的少女三船美佳结婚至 今,夫妻间相差24岁。三船美佳是日本巨星 三 船敏郎的私生女。 据称,高桥凭借ROAD总共获得近16亿日元的 版税。 除了唱片卖钱,被电视和电台或者电影等媒体 持续的引用和热播,也是疯狂敛财的重要因 素。

曲目:

1. 19才の少年
2. ロード(ROAD)-孙耀威 爱的故事上集
3. ヨコハマ·レイニーナイト
4. WHY·I·愛
5. こっぱみじんのロックンロール
6. 道化師〈ピエロ〉
7. アンチェインド·ドリーマー
8. ストリート·ファイター
9. プロポーズ
10. 祈り
11. エキストラ
213705uo3r8hsmrmhnm3m8.jpg.thumb.jpg

213720uof0xqvp03qx0677.jpg.thumb.jpg

213736rv0q38h063d8ydto.jpg.thumb.jpg


Exact Audio Copy V1.0 beta 2 from 29. April 2011

EAC日志文件创建时间:31. 8. 2013, 21:33

THE 虎舞竜 / 【捌零音乐论坛】ロード~ドキュメント(ROAD~document)(AiDey制作)

光驱型号   PLDS    DVD-RW DS8A8SH   Adapter: 0  ID: 1

读取模式   : 精确模式
使用精确流  : 是
屏蔽数据缓存 : 是
使用C2纠错 : 否

读取偏移校正             : 6
通读Lead-In和Lead-Out : 否
用静音填充丢失的偏移采样       : 是
删除开始与结尾的静音部分       : 否
校验和计算中使用空白采样       : 否
使用的接口              : Win NT & 2000 的原生Win32接口

输出格式    : 内部WAV例程
采样格式    : 44.100 Hz; 16 Bit; 立体声


CD音轨清单(TOC)



     Track |   Start  |  Length  | Start sector | End sector
    ---------------------------------------------------------
        1  |  0:00.00 |  5:21.67 |         0    |    24141   
        2  |  5:21.67 |  4:29.73 |     24142    |    44389   
        3  |  9:51.65 |  6:10.07 |     44390    |    72146   
        4  | 16:01.72 |  3:46.45 |     72147    |    89141   
        5  | 19:48.42 |  5:25.38 |     89142    |   113554   
        6  | 25:14.05 |  4:22.27 |    113555    |   133231   
        7  | 29:36.32 |  6:36.15 |    133232    |   162946   
        8  | 36:12.47 |  4:14.33 |    162947    |   182029   
        9  | 40:27.05 |  3:03.37 |    182030    |   195791   
       10  | 43:30.42 |  6:29.53 |    195792    |   225019   
       11  | 50:00.20 |  6:04.32 |    225020    |   252351   


===以下为选定范围的抓取结果报告===

选定范围为(如空白则为全盘镜像):

     抓轨文件 :D:\未知艺术家\THE虎舞竜\ロード~ドキュメント(ROAD~document)\THE 虎舞竜 - 【捌零音乐论坛】ロード~ドキュメント(ROAD~document)(AiDey制作).wav

     峰值电平 :100.0 %
     抓轨速度 :3.7 X
     范围质量 :100.0 %
     复制CRC:722AF2BB
     复制成功 !

没有错误发生


AccurateRip总结报告

音轨序号  1  不能精确校验 (可信的报告次数: 2)  [2BDC5FCA], AccurateRip返回结果 [C16298E9]  (AR v2)
音轨序号  2  不能精确校验 (可信的报告次数: 2)  [DF50298B], AccurateRip返回结果 [C8EC1C57]  (AR v2)
音轨序号  3  不能精确校验 (可信的报告次数: 2)  [2BD68354], AccurateRip返回结果 [B12A5C21]  (AR v2)
音轨序号  4  不能精确校验 (可信的报告次数: 2)  [407245E4], AccurateRip返回结果 [025D6A58]  (AR v2)
音轨序号  5  不能精确校验 (可信的报告次数: 2)  [12B340D3], AccurateRip返回结果 [B09EB1EC]  (AR v2)
音轨序号  6  不能精确校验 (可信的报告次数: 2)  [9AEF1626], AccurateRip返回结果 [7BEEC4F2]  (AR v2)
音轨序号  7  不能精确校验 (可信的报告次数: 2)  [DB4A89B6], AccurateRip返回结果 [3B148D75]  (AR v2)
音轨序号  8  不能精确校验 (可信的报告次数: 2)  [6B1B24F0], AccurateRip返回结果 [CB8D333C]  (AR v2)
音轨序号  9  不能精确校验 (可信的报告次数: 2)  [64BCF3FE], AccurateRip返回结果 [0435F864]  (AR v2)
音轨序号 10  不能精确校验 (可信的报告次数: 2)  [865386B1], AccurateRip返回结果 [DD239B1C]  (AR v2)
音轨序号 11  不能精确校验 (可信的报告次数: 2)  [890EE878], AccurateRip返回结果 [7352B7CA]  (AR v2)

没有音轨可被精确校验
你的CD母盘可能与数据库中的不同

      =============  日志文件到此结束  =============
试听:ロード(ROAD)-孙耀威 爱的故事上集

游客,如果您要查看本帖隐藏内容请回复


注意:
本专辑只供试听!严禁用于商业用途及其公共场合,转帖请标注原帖出处(违者必究),请在25小时之后删除此资源,本人不承担任何法律责任,如果喜欢此专辑请用RMB去购买正版!谢谢合作!

回复

使用道具 举报

您需要登录后才可以回帖 登录 | 立即注册

本版积分规则

QQ|Archiver|手机版|小黑屋|

普宁社区,普宁人的线上综合社区! ( 粤ICP备15103310号 )Design by PnShi © 2013-2015  

快速回复 刷新页面 返回列表 返回顶部